OFF [2002][DVDrip][Castellano][Terror][WU] 1 Link





DIRECTOR: Antonio Dyaz
GUION: Antonio Dyaz
INTERPRETES: Julián Hernández
Mar Arias
Momoyo Miya
Pepa Slas
PRODUCTOR: Antonio Dyaz - Manuel Alonso Erausquin

Sinopsis:
Samantha es una joven pintora que goza de cierto éxito, pero comienza a escuchar dentro de su cabeza una voz en off que trata de convencerla de que lleva varias semanas muerta. Ya al borde de la locura recibe un paquete con una cinta de vídeo, en la que puede verse cómo es asesinada en un hotel de Estambul, durante un reciente viaje de recreo.

Info:

File size                                : 700 MiB
Duration                                 : 1h 17mn
Overall bit rate                         : 1 269 Kbps
Writing application                      : VirtualDubMod 1.5.4.1 (build 2066/release)
Writing library                          : VirtualDubMod build 2066/release

Video
ID                                       : 0
Format                                   : MPEG-4 Visual
Format profile                           : Advanced [email protected]
Format settings, BVOP                    : No
Format settings, QPel                    : No
Format settings, GMC                     : No warppoints
Format settings, Matrix                  : Default (H.263)
Codec ID                                 : XVID
Codec ID/Hint                            : XviD
Duration                                 : 1h 17mn
Bit rate                                 : 1 123 Kbps
Width                                    : 512 pixels
Height                                   : 304 pixels
Display aspect ratio                     : 1.684
Frame rate                               : 25.000 fps
Color space                              : YUV
Chroma subsampling                       : 4:2:0
Bit depth                                : 8 bits
Scan type                                : Progressive
Compression mode                         : Lossy
Bits/(Pixel*Frame)                       : 0.289
Stream size                              : 619 MiB (89%)
Writing library                          : XviD 1.0.1 (UTC 2004-06-05)

Audio
ID                                       : 1
Format                                   : MPEG Audio
Format version                           : Version 1
Format profile                           : Layer 3
Mode                                     : Joint stereo
Mode extension                           : MS Stereo
Codec ID                                 : 55
Codec ID/Hint                            : MP3
Duration                                 : 1h 17mn
Bit rate mode                            : Variable
Bit rate                                 : 133 Kbps
Minimum bit rate                         : 80.0 Kbps
Channel(s)                               : 2 channels
Sampling rate                            : 48.0 KHz
Compression mode                         : Lossy
Stream size                              : 73.3 MiB (10%)
Alignment                                : Aligned on interleaves
Interleave, duration                     : 24 ms (0.60 video frame)
Interleave, preload duration             : 488 ms
Writing library                          : LAME3.93a
Encoding settings                        : -m j -V 4 -q 2 -lowpass 18.7 --vbr-new -b 80


CApturas:



Descarga:

Wupload: http://www.wupload.com/file/194616761